Dont Miss To Get Latest Movies and Tv Show Direct In Your Inbox Enter your email address:  

X Men Dark Phoenix (2019) 720p HDCAM Hindi Dual Audio Movie 720p

June 10, 2019 Dual Audio 720p

Changed Domain Please Use Our New Domain https://7starhd.work 

Download Here                   Watch Now

X Men Dark Phoenix (2019) 720p HDCAM Hindi Dual Audio Movie 720p.mp4

IMDB Link

General
Complete name : X Men Dark Phoenix (2019) 720p HDCAM Hindi Dual Audio.mp4
Format : MPEG-4
Format profile : Base Media / Version 2
Codec ID : mp42 (mp42)
File size : 580 MiB
Duration : 2 h 6 min
Overall bit rate mode : Constant
Overall bit rate : 641 kb/s
Codirector : codirector
Production studio : studio

Video
Format : MPEG-4 Visual
Format settings, BVOP : Yes
Format settings, QPel : No
Format settings, GMC : No warppoints
Format settings, Matrix : Default (H.263)
Codec ID : 20
Duration : 2 h 6 min
Bit rate mode : Constant
Bit rate : 512 kb/s
Width : 720 pixels
Height : 308 pixels
Display aspect ratio : 2.35:1
Frame rate mode : Constant
Frame rate : 25.000 FPS
Color space : YUV
Bit depth : 8 bits
Scan type : Progressive
Compression mode : Lossy
Bits/(Pixel*Frame) : 0.092
Stream size : 464 MiB (80%)

Audio
Format : AAC
Format/Info : Advanced Audio Codec
Format profile : LC
Codec ID : 40
Duration : 2 h 6 min
Bit rate mode : Constant
Bit rate : 124 kb/s
Channel(s) : 2 channels
Channel positions : Front: L R
Sampling rate : 44.1 kHz
Frame rate : 43.066 FPS (1024 SPF)
Compression mode : Lossy
Stream size : 112 MiB (19%)
Title : Stereo
Language : English








indishare Link

TheFilesLocker Link

MegaUp Link

OpenLoad Link

UserscLoud Link

ClicknupLoad Link

BDupload Link

UpPom Link

UploadBuzz Link

Note: If you Can’t See the links Please Use VPN or any proxy thanks

Download Here                   Watch Now
How to Download ? ]

Comments