Dont Miss To Get Latest Movies and Tv Show Direct In Your Inbox Enter your email address:  

Mon Jaane Na 2019 Bengali Movie DVDRip x264 AC3

June 11, 2019 Kolkata Movies

Changed Domain Please Use Our New Domain https://7starhd.work 

Download Here                   Watch Now

Mon Jaane Na 2019 Bengali Movie DVDRip x264 AC3
https://www.imdb.com/title/tt10215026/

General
Complete name : Mon Jaane Na 2019 Bengali Movie DVDRip x264 AC3.mp4
Format : MPEG-4
Format profile : Base Media
Codec ID : isom (isom/iso2/avc1/mp41)
File size : 887 MiB
Duration : 2 h 16 min
Overall bit rate : 912 kb/s
Video
ID : 1
Format : AVC
Format/Info : Advanced Video Codec
Format profile : [email protected]
Format settings : CABAC / 2 Ref Frames
Format settings, CABAC : Yes
Format settings, RefFrames : 2 frames
Codec ID : avc1
Codec ID/Info : Advanced Video Coding
Duration : 2 h 16 min
Bit rate : 733 kb/s
Width : 960 pixels
Height : 640 pixels
Display aspect ratio : 3:2
Frame rate mode : Constant
Frame rate : 24.000 FPS
Color space : YUV
Chroma subsampling : 4:2:0
Bit depth : 8 bits
Scan type : Progressive
Bits/(Pixel*Frame) : 0.050
Stream size : 696 MiB (78%)
Writing library : x264
Audio
ID : 2
Format : AC-3
Format/Info : Audio Coding 3
Codec ID : ac-3
Duration : 2 h 16 min
Bit rate mode : Constant
Bit rate : 192 kb/s
Channel(s) : 6 channels
Channel positions : Front: L C R, Side: L R, LFE
Sampling rate : 44.1 kHz
Frame rate : 28.711 FPS (1536 SPF)
Bit depth : 16 bits
Compression mode : Lossy
Stream size : 187 MiB (21%)
 

 

 

 

…::: Download Link :::…

Openload Link

Click Link

Indishare Link

BDupload Link

Note: If you Can’t See the links Please Use VPN or any proxy thanks

Download Here                   Watch Now
How to Download ? ]

Comments